Annabelle Creation 2017 Dual Audio [Hindi(Cleaned)-English] 720p ...

  • Category Movies
  • Type Dubs/Dual Audio
  • Language Hindi
  • Total size 959.3 MB
  • Uploaded By ExtraMovies
  • Downloads 52468
  • Last checked 4 weeks ago
  • Date uploaded 1 month ago
  • Seeders 488
  • Leechers 307

Annabelle: Creation

ThrillerHorror

Several years after the tragic death of their little girl, a dollmaker and his wife welcome a nun and several girls from a shuttered orphanage into their home, soon becoming the target of the dollmaker's possessed creation, Annabelle.

Infohash : 3A1C373A14EFD740EA229A3A1FCC5182A46160EB


Movie Info

General
Unique ID : 237646219543496096998177166609964644062 (0xB2C8FF3DF16465FB9F0168B2A8D8B6DE)
Complete name : Annabelle Creation 2017 Dual Audio [Hindi(Cleaned)-English] 720p HC HDRip x264 AAC - ExtraMovies.mkv
Format : Matroska
Format version : Version 4 / Version 2
File size : 959 MiB
Duration : 1 h 49 min
Overall bit rate : 1 225 kb/s
Movie name : ExtraMovies.ws - Annabelle Creation 2017 720p HC HDRip Dual Audio Hindi(Cleaned)+English x264 AAC
Encoded date : UTC 2017-09-15 07:21:22
Writing application : mkvmerge v10.0.0 ('To Drown In You') 64bit
Writing library : libebml v1.3.4 + libmatroska v1.4.5

Video
ID : 1
Format : AVC
Format/Info : Advanced Video Codec
Format profile : [email protected]
Format settings, CABAC : Yes
Format settings, ReFrames : 8 frames
Codec ID : V_MPEG4/ISO/AVC
Duration : 1 h 49 min
Bit rate : 999 kb/s
Width : 1 280 pixels
Height : 544 pixels
Display aspect ratio : 2.35:1
Frame rate mode : Constant
Frame rate : 23.976 (23976/1000) FPS
Color space : YUV
Chroma subsampling : 4:2:0
Bit depth : 8 bits
Scan type : Progressive
Bits/(Pixel*Frame) : 0.060
Stream size : 782 MiB (82%)
Title : ExtraMovies.ws
Writing library : x264 core 142 r2479 dd79a61
Encoding settings : cabac=1 / ref=8 / deblock=1:0:0 / analyse=0x3:0x113 / me=umh / subme=9 / psy=1 / psy_rd=1.00:0.00 / mixed_ref=1 / me_range=16 / chroma_me=1 / trellis=2 / 8x8dct=1 / cqm=0 / deadzone=21,11 / fast_pskip=1 / chroma_qp_offset=-2 / threads=12 / lookahead_threads=1 / sliced_threads=0 / nr=0 / decimate=1 / interlaced=0 / bluray_compat=0 / constrained_intra=0 / bframes=3 / b_pyramid=2 / b_adapt=2 / b_bias=0 / direct=3 / weightb=1 / open_gop=0 / weightp=2 / keyint=240 / keyint_min=24 / scenecut=40 / intra_refresh=0 / rc_lookahead=60 / rc=2pass / mbtree=1 / bitrate=999 / ratetol=1.0 / qcomp=0.60 / qpmin=0 / qpmax=69 / qpstep=4 / cplxblur=20.0 / qblur=0.5 / vbv_maxrate=62500 / vbv_bufsize=78125 / nal_hrd=none / filler=0 / ip_ratio=1.40 / aq=1:1.00
Default : Yes
Forced : No
Color range : Limited
Color primaries : BT.709
Transfer characteristics : BT.709
Matrix coefficients : BT.709

Audio #1
ID : 2
Format : AAC
Format/Info : Advanced Audio Codec
Format profile : LC
Codec ID : A_AAC
Duration : 1 h 49 min
Bit rate : 128 kb/s
Channel(s) : 2 channels
Channel positions : Front: L R
Sampling rate : 48.0 kHz
Frame rate : 46.875 FPS (1024 spf)
Compression mode : Lossy
Delay relative to video : -156 ms
Stream size : 100 MiB (10%)
Title : ExtraMovies.ws
Language : Hindi
Default : Yes
Forced : No

Audio #2
ID : 3
Format : AAC
Format/Info : Advanced Audio Codec
Format profile : HE-AAC / LC
Codec ID : A_AAC
Duration : 1 h 49 min
Bit rate : 96.0 kb/s
Channel(s) : 2 channels
Channel positions : Front: L R
Sampling rate : 48.0 kHz / 24.0 kHz
Frame rate : 23.438 FPS (1024 spf)
Compression mode : Lossy
Delay relative to video : -105 ms
Stream size : 75.2 MiB (8%)
Title : ExtraMovies.ws
Language : English
Default : No
Forced : No












Note* Hindi Audio Is Cleaned And Perfectly Synced With The Video.


Files:

Annabelle Creation 2017 Dual Audio [Hindi(Cleaned)-English] 720p HC HDRip x264 AAC - ExtraMovies
  • Annabelle Creation 2017 Dual Audio [Hindi(Cleaned)-English] 720p HC HDRip x264 AAC - ExtraMovies.mkv (959.3 MB)
  • ExtraMovies.ws.txt (0.1 KB)

Comments

Code:

  • udp://tracker.coppersurfer.tk:6969/announce