David Gilmour: Live At Pompeii (2017)[Part 2][BRRip 1080p x264 by...

  • Category Music
  • Type Video
  • Language English
  • Total size 20.8 GB
  • Uploaded By alE13
  • Downloads 248
  • Last checked 6 days ago
  • Date uploaded 1 week ago
  • Seeders 20
  • Leechers 38

Infohash : A4E645FFB7E61DB3E47231578D174458FD2A09A6



http://www.imdb.com/title/tt7359702/

premiera: 2017
produkcja: Eng
reżyseria: Gavin Elder
wytwórnia: Sony Music
gatunek: progresiwe rock, koncert
czas: part 2: 1h 24min

opis:

45 years after Pink Floyd’s David Gilmour filmed ‘Live At Pompeii’ in the legendary
Roman Amphitheatre there, he returned for two spectacular shows in July 2016, part
of the year-long tour in support of his No.1 album ‘Rattle That Lock’. The performances
were the first-ever rock concerts for an audience in the stone Roman amphitheatre, and,
for two nights only, the 2,600-strong crowd stood exactly where gladiators would have
fought in the first century AD.

‘David Gilmour Live At Pompeii’ is an audio-visual spectacle, featuring lasers, pyrotechnics
and a huge circular screen on which specially-created films complement selected songs, but
paramount above all is the astonishing music and stellar performances. The show includes
songs from throughout David's career, solo and with Pink Floyd, including 'One Of These Days',
the only song that was also performed at the band’s 1971 show, and six songs from ‘Rattle that Lock’,
as well as two from 2006’s ‘On An Island’.

more:

http://www.davidgilmour.com/

7 i 8 lipca 2016 roku w legendarnym amfiteatrze w Pompejach odbyły się dwa
widowiskowe koncerty Davida Gilmoura. Artysta wrócił na scenę starożytnego
obiektu u stóp wulkanu Wezuwiusz 45 lat po swoim pierwszym występie w tym
miejscu, zarejestrowanym na filmie Pink Floyd Live at Pompeii.

Koncerty w ramach trasy Rattle That Lock Tour były pierwszym show z udziałem
publiczności, jakie odbyły się w wybudowanym w 90 r p.n.e. rzymskim amfiteatrze,
arenie walk gladiatorów do czasu wybuchu Wezuwiusza w 79 roku naszej ery.
"To magiczne miejsce. Powrót tutaj, zobaczenie tej sceny, było czymś przytłaczającym.
To miejsce pełne duchów..." - mówił o antycznej budowli, w której odbył się
koncert, David Gilmour.






tracklist:

Part 2:
One Of These Days (6.35)
Shine On You Crazy Diamond (12.37)
Fat Old Sun (5.58)
Coming Back To Life (7.16)
On An Island (7.08)
Today (6.34)
Sorrow (10.49)
Run Like Hell (7.15)
Time / Breathe (In The Air) (reprise) (6.45)
Comfortably Numb (9.41)
Documentary:
Pompeii Then And Now Doc (7.17)

dane techniczne:

David Gilmour-Live At Pompeii (2017)-alE13_part 2 (1).mkv
Format : Matroska
Format version : Version 4 / Version 2
File size : 8.26 GiB
Duration : 1 h 24 min
Overall bit rate : 14.1 Mb/s
Movie name : David Gilmour: Live At Pompeii (2017)-alE13_part 2
Encoded date : UTC 2017-10-13 03:11:46
Writing application : mkvmerge v8.1.0 ('Psychedelic Postcard') 64bit
Writing library : libebml v1.3.1 + libmatroska v1.4.2
Cover : Yes
Attachments : Cover.jpg

Video
ID : 1
Format : AVC
Format/Info : Advanced Video Codec
Format profile : [email protected]
Format settings, CABAC : Yes
Format settings, RefFrames : 2 frames
Codec ID : V_MPEG4/ISO/AVC
Duration : 1 h 24 min
Bit rate : 8 800 kb/s
Width : 1 920 pixels
Height : 1 080 pixels
Display aspect ratio : 16:9
Frame rate mode : Constant
Frame rate : 23.976 (24000/1001) FPS
Color space : YUV
Chroma subsampling : 4:2:0
Bit depth : 8 bits
Scan type : Progressive
Bits/(Pixel*Frame) : 0.177
Stream size : 5.17 GiB (63%)
Title : David Gilmour: Live At Pompeii (2017)-alE13_part2
Default : Yes
Forced : No
Color range : Limited
Color primaries : BT.709
Transfer characteristics : BT.709
Matrix coefficients : BT.709

Audio #1
ID : 2
Format : PCM
Codec ID : A_PCM/INT/LIT
Duration : 1 h 24 min
Bit rate mode : Constant
Bit rate : 4 608 kb/s
Channel(s) : 2 channels
Sampling rate : 96.0 kHz
Frame rate : 32.000 FPS (3000 SPF)
Bit depth : 24 bits
Stream size : 2.71 GiB (33%)
Title : David Gilmour: Live At Pompeii (2017)-alE13_PCM_part2
Language : English
Default : No
Forced : No

Audio #2
ID : 3
Format : AC-3
Format/Info : Audio Coding 3
Format settings, Endianness : Big
Codec ID : A_AC3
Duration : 1 h 24 min
Bit rate mode : Constant
Bit rate : 640 kb/s
Channel(s) : 6 channels
Channel positions : Front: L C R, Side: L R, LFE
Sampling rate : 48.0 kHz
Frame rate : 31.250 FPS (1536 SPF)
Bit depth : 16 bits
Compression mode : Lossy
Stream size : 385 MiB (5%)
Title : David Gilmour: Live At Pompeii (2017)-alE13_AC3_part2
Language : English
Service kind : Complete Main
Default : No
Forced : No

Menu
00:00:00.000 : en:2.1 (12) One Of These Days
00:06:35.395 : en:2.2 (13) Shine On You Crazy Diamond
00:19:13.527 : en:2.3 (14) Fat Old Sun
00:25:11.885 : en:2.4 (15) Coming Back To Life
00:32:29.072 : en:2.5 (16) On An Island
00:39:37.541 : en:2.6 (17) Today
00:46:12.102 : en:2.7 (18) Sorrow
00:57:01.751 : en:2.8 (19) Run Like Hell
01:04:17.770 : en:2.9 (20) Time / Breathe (In The Air) (reprise)
01:11:03.716 : en:2.10 (21) Comfortably Numb
01:20:45.590 : en:>> Final Credits <<

Files:

David Gilmour - Live At Pompeii (2017)-alE13_part2 David Gilmour - Live At Pompeii (2017)_FLAC
  • David Gilmour - Live At Pompeii 2017 FLAC.zip (1.1 GB)
  • David Gilmour - Live At Pompeii - Front.jpg (3.0 MB)
  • David Gilmour - Live At Pompeii - Front (1).jpg (3.0 MB)
  • David Gilmour - Live At Pompeii - Back.jpg (2.9 MB)
  • David Gilmour - Live At Pompeii - CD1.jpg (1.4 MB)
  • David Gilmour - Live At Pompeii - CD2.jpg (1.1 MB)
info
  • Cover.jpg (756.8 KB)
  • Nostalgie11.jpg (185.8 KB)
  • 1.jpg (183.0 KB)
  • txt.jpg (87.2 KB)
  • Torrent Downloaded From devil-torrents.txt (0.1 KB)
  • Torrent downloaded from demonoid.pw.txt (0.0 KB)
  • Torrent Downloaded From ex-torrents-org.txt (0.0 KB)
  • Torrent Downloaded From immortaltorrent.txt (0.0 KB)
  • Torrent Downloaded From super-torrent.txt (0.0 KB)
  • Torrent Downloaded From 1337x.to.txt (0.0 KB)
  • Torrent Downloaded From bitnova.info.txt (0.0 KB)
  • David Gilmour-Live At Pompeii (2017)-alE13_part 2 (1).mkv (8.3 GB)
  • David Gilmour - Live At Pompeii (2017)-alE13_part 2.mkv (8.3 GB)
  • David Gilmour - Live At Pompeii (2017)-alE13_part2.mka (3.1 GB)
  • Sample.mkv (41.2 MB)
  • Poster.jpg (109.7 KB)

Comments

Code:

  • http://tracker.devil-torrents.pl/announce
  • http://tracker.torrentyorg.pl/announce
  • udp://tracker.opentrackr.org:1337/announce
  • udp://tracker.leechers-paradise.org:6969/announce
  • udp://tracker.ilibr.org:80/announce
  • udp://tracker.coppersurfer.tk:6969/announce
  • udp://p4p.arenabg.ch:1337/announce
  • udp://inferno.demonoid.pw:3391/announce